Html academy базовый html и css торрент


Скачать торрент Интенсивный онлайн-курс «Продвинутый HTML и CSS» [HTML Academy] (2016) PCRec :: Mrutor.org

General Complete name : C:torrentHTML academy1 Вводный.mp4 Format : MPEG-4 Format profile : Base Media / Version 2 Codec ID : mp42 (mp42/mp41/isom/avc1) File size : 983 MiB Duration : 2h 13mn Overall bit rate mode : Variable Overall bit rate : 1 028 Kbps Encoded date : UTC 2016-05-24 08:08:21 Tagged date : UTC 2016-05-24 08:08:21

Video ID : 1 Format : AVC Format/Info : Advanced Video Codec Format profile : [email protected] Format settings, CABAC : Yes Format settings, ReFrames : 4 frames Codec ID : avc1 Codec ID/Info : Advanced Video Coding Duration : 2h 13mn Bit rate : 788 Kbps Width : 1 728 pixels Height : 1 080 pixels Display aspect ratio : 16:10 Frame rate mode : Constant Frame rate : 30.000 fps Color space : YUV Chroma subsampling : 4:2:0 Bit depth : 8 bits Scan type : Progressive Bits/(Pixel*Frame) : 0.014 Stream size : 754 MiB (77%) Writing library : x264 core 148 r11 a01e339 Encoding settings : cabac=1 / ref=4 / deblock=1:0:0 / analyse=0x3:0x113 / me=umh / subme=8 / psy=1 / psy_rd=1.00:0.00 / mixed_ref=1 / me_range=16 / chroma_me=1 / trellis=1 / 8x8dct=1 / cqm=0 / deadzone=21,11 / fast_pskip=1 / chroma_qp_offset=-2 / threads=34 / lookahead_threads=5 / sliced_threads=0 / nr=0 / decimate=1 / interlaced=0 / bluray_compat=0 / stitchable=1 / constrained_intra=0 / bframes=3 / b_pyramid=2 / b_adapt=2 / b_bias=0 / direct=3 / weightb=1 / open_gop=0 / weightp=2 / keyint=infinite / keyint_min=30 / scenecut=40 / intra_refresh=0 / rc_lookahead=50 / rc=crf / mbtree=1 / crf=20.0 / qcomp=0.60 / qpmin=5 / qpmax=69 / qpstep=4 / vbv_maxrate=4950 / vbv_bufsize=13500 / crf_max=0.0 / nal_hrd=none / filler=0 / ip_ratio=1.40 / aq=1:1.00 Encoded date : UTC 2016-05-24 08:08:21 Tagged date : UTC 2016-05-24 08:08:21 Color range : Limited Color primaries : BT.709 Transfer characteristics : BT.709 Matrix coefficients : BT.709

Audio ID : 2 Format : AAC Format/Info : Advanced Audio Codec Format profile : LC Codec ID : 40 Duration : 2h 13mn Bit rate mode : Variable Bit rate : 235 Kbps Channel(s) : 2 channels Channel positions : Front: L R Sampling rate : 48.0 KHz Frame rate : 46.875 fps (1024 spf) Compression mode : Lossy Stream size : 225 MiB (23%) Encoded date : UTC 2016-05-24 08:08:21 Tagged date : UTC 2016-05-24 08:08:21

General Complete name : C:torrentHTML academy10 Финал.mp4 Format : MPEG-4 Format profile : Base Media / Version 2 Codec ID : mp42 (mp42/mp41/isom/avc1) File size : 377 MiB Duration : 51mn 24s Overall bit rate mode : Variable Overall bit rate : 1 024 Kbps Encoded date : UTC 2016-07-01 11:58:32 Tagged date : UTC 2016-07-01 11:58:32

Video ID : 1 Format : AVC Format/Info : Advanced Video Codec Format profile : [email protected] Format settings, CABAC : Yes Format settings, ReFrames : 4 frames Codec ID : avc1 Codec ID/Info : Advanced Video Coding Duration : 51mn 24s Bit rate : 784 Kbps Width : 1 728 pixels Height : 1 080 pixels Display aspect ratio : 16:10 Frame rate mode : Constant Frame rate : 30.000 fps Color space : YUV Chroma subsampling : 4:2:0 Bit depth : 8 bits Scan type : Progressive Bits/(Pixel*Frame) : 0.014 Stream size : 288 MiB (77%) Writing library : x264 core 148 r11 3b70645 Encoding settings : cabac=1 / ref=4 / deblock=1:0:0 / analyse=0x3:0x113 / me=umh / subme=8 / psy=1 / psy_rd=1.00:0.00 / mixed_ref=1 / me_range=16 / chroma_me=1 / trellis=1 / 8x8dct=1 / cqm=0 / deadzone=21,11 / fast_pskip=1 / chroma_qp_offset=-2 / threads=34 / lookahead_threads=5 / sliced_threads=0 / nr=0 / decimate=1 / interlaced=0 / bluray_compat=0 / stitchable=1 / constrained_intra=0 / bframes=3 / b_pyramid=2 / b_adapt=2 / b_bias=0 / direct=3 / weightb=1 / open_gop=0 / weightp=2 / keyint=infinite / keyint_min=30 / scenecut=40 / intra_refresh=0 / rc_lookahead=50 / rc=crf / mbtree=1 / crf=20.0 / qcomp=0.60 / qpmin=5 / qpmax=69 / qpstep=4 / vbv_maxrate=4950 / vbv_bufsize=13500 / crf_max=0.0 / nal_hrd=none / filler=0 / ip_ratio=1.40 / aq=1:1.00 Encoded date : UTC 2016-07-01 11:58:32 Tagged date : UTC 2016-07-01 11:58:32 Color range : Limited Color primaries : BT.709 Transfer characteristics : BT.709 Matrix coefficients : BT.709

Audio ID : 2 Format : AAC Format/Info : Advanced Audio Codec Format profile : LC Codec ID : 40 Duration : 51mn 24s Bit rate mode : Variable Bit rate : 235 Kbps Channel(s) : 2 channels Channel positions : Front: L R Sampling rate : 48.0 KHz Frame rate : 46.875 fps (1024 spf) Compression mode : Lossy Stream size : 86.5 MiB (23%) Encoded date : UTC 2016-07-01 11:58:32 Tagged date : UTC 2016-07-01 11:58:32

General Complete name : C:torrentHTML academy2 Методологии.mp4 Format : MPEG-4 Format profile : Base Media / Version 2 Codec ID : mp42 (mp42/mp41/isom/avc1) File size : 918 MiB Duration : 1h 51mn Overall bit rate mode : Variable Overall bit rate : 1 147 Kbps Encoded date : UTC 2016-05-27 08:55:48 Tagged date : UTC 2016-05-27 08:55:48

Video ID : 1 Format : AVC Format/Info : Advanced Video Codec Format profile : [email protected] Format settings, CABAC : Yes Format settings, ReFrames : 4 frames Codec ID : avc1 Codec ID/Info : Advanced Video Coding Duration : 1h 51mn Bit rate : 907 Kbps Width : 1 728 pixels Height : 1 080 pixels Display aspect ratio : 16:10 Frame rate mode : Constant Frame rate : 30.000 fps Color space : YUV Chroma subsampling : 4:2:0 Bit depth : 8 bits Scan type : Progressive Bits/(Pixel*Frame) : 0.016 Stream size : 726 MiB (79%) Writing library : x264 core 148 r11 a01e339 Encoding settings : cabac=1 / ref=4 / deblock=1:0:0 / analyse=0x3:0x113 / me=umh / subme=8 / psy=1 / psy_rd=1.00:0.00 / mixed_ref=1 / me_range=16 / chroma_me=1 / trellis=1 / 8x8dct=1 / cqm=0 / deadzone=21,11 / fast_pskip=1 / chroma_qp_offset=-2 / threads=34 / lookahead_threads=5 / sliced_threads=0 / nr=0 / decimate=1 / interlaced=0 / bluray_compat=0 / stitchable=1 / constrained_intra=0 / bframes=3 / b_pyramid=2 / b_adapt=2 / b_bias=0 / direct=3 / weightb=1 / open_gop=0 / weightp=2 / keyint=infinite / keyint_min=30 / scenecut=40 / intra_refresh=0 / rc_lookahead=50 / rc=crf / mbtree=1 / crf=20.0 / qcomp=0.60 / qpmin=5 / qpmax=69 / qpstep=4 / vbv_maxrate=4950 / vbv_bufsize=13500 / crf_max=0.0 / nal_hrd=none / filler=0 / ip_ratio=1.40 / aq=1:1.00 Encoded date : UTC 2016-05-27 08:55:48 Tagged date : UTC 2016-05-27 08:55:48 Color range : Limited Color primaries : BT.709 Transfer characteristics : BT.709 Matrix coefficients : BT.709

Audio ID : 2 Format : AAC Format/Info : Advanced Audio Codec Format profile : LC Codec ID : 40 Duration : 1h 51mn Bit rate mode : Variable Bit rate : 235 Kbps Channel(s) : 2 channels Channel positions : Front: L R Sampling rate : 48.0 KHz Frame rate : 46.875 fps (1024 spf) Compression mode : Lossy Stream size : 188 MiB (21%) Encoded date : UTC 2016-05-27 08:55:48 Tagged date : UTC 2016-05-27 08:55:48

General Complete name : C:torrentHTML academy3 CSS-препроцессоры.mp4 Format : MPEG-4 Format profile : Base Media / Version 2 Codec ID : mp42 (mp42/mp41/isom/avc1) File size : 819 MiB Duration : 1h 57mn Overall bit rate mode : Variable Overall bit rate : 975 Kbps Encoded date : UTC 2016-05-31 09:46:37 Tagged date : UTC 2016-05-31 09:46:37

Video ID : 1 Format : AVC Format/Info : Advanced Video Codec Format profile : [email protected] Format settings, CABAC : Yes Format settings, ReFrames : 4 frames Codec ID : avc1 Codec ID/Info : Advanced Video Coding Duration : 1h 57mn Bit rate : 735 Kbps Width : 1 728 pixels Height : 1 080 pixels Display aspect ratio : 16:10 Frame rate mode : Constant Frame rate : 30.000 fps Color space : YUV Chroma subsampling : 4:2:0 Bit depth : 8 bits Scan type : Progressive Bits/(Pixel*Frame) : 0.013 Stream size : 617 MiB (75%) Writing library : x264 core 148 r11 a01e339 Encoding settings : cabac=1 / ref=4 / deblock=1:0:0 / analyse=0x3:0x113 / me=umh / subme=8 / psy=1 / psy_rd=1.00:0.00 / mixed_ref=1 / me_range=16 / chroma_me=1 / trellis=1 / 8x8dct=1 / cqm=0 / deadzone=21,11 / fast_pskip=1 / chroma_qp_offset=-2 / threads=34 / lookahead_threads=5 / sliced_threads=0 / nr=0 / decimate=1 / interlaced=0 / bluray_compat=0 / stitchable=1 / constrained_intra=0 / bframes=3 / b_pyramid=2 / b_adapt=2 / b_bias=0 / direct=3 / weightb=1 / open_gop=0 / weightp=2 / keyint=infinite / keyint_min=30 / scenecut=40 / intra_refresh=0 / rc_lookahead=50 / rc=crf / mbtree=1 / crf=20.0 / qcomp=0.60 / qpmin=5 / qpmax=69 / qpstep=4 / vbv_maxrate=4950 / vbv_bufsize=13500 / crf_max=0.0 / nal_hrd=none / filler=0 / ip_ratio=1.40 / aq=1:1.00 Encoded date : UTC 2016-05-31 09:46:37 Tagged date : UTC 2016-05-31 09:46:37 Color range : Limited Color primaries : BT.709 Transfer characteristics : BT.709 Matrix coefficients : BT.709

Audio ID : 2 Format : AAC Format/Info : Advanced Audio Codec Format profile : LC Codec ID : 40 Duration : 1h 57mn Bit rate mode : Variable Bit rate : 235 Kbps Channel(s) : 2 channels Channel positions : Front: L R Sampling rate : 48.0 KHz Frame rate : 46.875 fps (1024 spf) Compression mode : Lossy Stream size : 198 MiB (24%) Encoded date : UTC 2016-05-31 09:46:37 Tagged date : UTC 2016-05-31 09:46:37

mrutor.org

Интенсивный онлайн-курс «Продвинутый HTML и CSS» [HTML Academy] (2016) PCRec

General Complete name : C:torrentHTML academy1 Вводный.mp4 Format : MPEG-4 Format profile : Base Media / Version 2 Codec ID : mp42 (mp42/mp41/isom/avc1) File size : 983 MiB Duration : 2h 13mn Overall bit rate mode : Variable Overall bit rate : 1 028 Kbps Encoded date : UTC 2016-05-24 08:08:21 Tagged date : UTC 2016-05-24 08:08:21

Video ID : 1 Format : AVC Format/Info : Advanced Video Codec Format profile : [email protected] Format settings, CABAC : Yes Format settings, ReFrames : 4 frames Codec ID : avc1 Codec ID/Info : Advanced Video Coding Duration : 2h 13mn Bit rate : 788 Kbps Width : 1 728 pixels Height : 1 080 pixels Display aspect ratio : 16:10 Frame rate mode : Constant Frame rate : 30.000 fps Color space : YUV Chroma subsampling : 4:2:0 Bit depth : 8 bits Scan type : Progressive Bits/(Pixel*Frame) : 0.014 Stream size : 754 MiB (77%) Writing library : x264 core 148 r11 a01e339 Encoding settings : cabac=1 / ref=4 / deblock=1:0:0 / analyse=0x3:0x113 / me=umh / subme=8 / psy=1 / psy_rd=1.00:0.00 / mixed_ref=1 / me_range=16 / chroma_me=1 / trellis=1 / 8x8dct=1 / cqm=0 / deadzone=21,11 / fast_pskip=1 / chroma_qp_offset=-2 / threads=34 / lookahead_threads=5 / sliced_threads=0 / nr=0 / decimate=1 / interlaced=0 / bluray_compat=0 / stitchable=1 / constrained_intra=0 / bframes=3 / b_pyramid=2 / b_adapt=2 / b_bias=0 / direct=3 / weightb=1 / open_gop=0 / weightp=2 / keyint=infinite / keyint_min=30 / scenecut=40 / intra_refresh=0 / rc_lookahead=50 / rc=crf / mbtree=1 / crf=20.0 / qcomp=0.60 / qpmin=5 / qpmax=69 / qpstep=4 / vbv_maxrate=4950 / vbv_bufsize=13500 / crf_max=0.0 / nal_hrd=none / filler=0 / ip_ratio=1.40 / aq=1:1.00 Encoded date : UTC 2016-05-24 08:08:21 Tagged date : UTC 2016-05-24 08:08:21 Color range : Limited Color primaries : BT.709 Transfer characteristics : BT.709 Matrix coefficients : BT.709

Audio ID : 2 Format : AAC Format/Info : Advanced Audio Codec Format profile : LC Codec ID : 40 Duration : 2h 13mn Bit rate mode : Variable Bit rate : 235 Kbps Channel(s) : 2 channels Channel positions : Front: L R Sampling rate : 48.0 KHz Frame rate : 46.875 fps (1024 spf) Compression mode : Lossy Stream size : 225 MiB (23%) Encoded date : UTC 2016-05-24 08:08:21 Tagged date : UTC 2016-05-24 08:08:21

General Complete name : C:torrentHTML academy10 Финал.mp4 Format : MPEG-4 Format profile : Base Media / Version 2 Codec ID : mp42 (mp42/mp41/isom/avc1) File size : 377 MiB Duration : 51mn 24s Overall bit rate mode : Variable Overall bit rate : 1 024 Kbps Encoded date : UTC 2016-07-01 11:58:32 Tagged date : UTC 2016-07-01 11:58:32

Video ID : 1 Format : AVC Format/Info : Advanced Video Codec Format profile : [email protected] Format settings, CABAC : Yes Format settings, ReFrames : 4 frames Codec ID : avc1 Codec ID/Info : Advanced Video Coding Duration : 51mn 24s Bit rate : 784 Kbps Width : 1 728 pixels Height : 1 080 pixels Display aspect ratio : 16:10 Frame rate mode : Constant Frame rate : 30.000 fps Color space : YUV Chroma subsampling : 4:2:0 Bit depth : 8 bits Scan type : Progressive Bits/(Pixel*Frame) : 0.014 Stream size : 288 MiB (77%) Writing library : x264 core 148 r11 3b70645 Encoding settings : cabac=1 / ref=4 / deblock=1:0:0 / analyse=0x3:0x113 / me=umh / subme=8 / psy=1 / psy_rd=1.00:0.00 / mixed_ref=1 / me_range=16 / chroma_me=1 / trellis=1 / 8x8dct=1 / cqm=0 / deadzone=21,11 / fast_pskip=1 / chroma_qp_offset=-2 / threads=34 / lookahead_threads=5 / sliced_threads=0 / nr=0 / decimate=1 / interlaced=0 / bluray_compat=0 / stitchable=1 / constrained_intra=0 / bframes=3 / b_pyramid=2 / b_adapt=2 / b_bias=0 / direct=3 / weightb=1 / open_gop=0 / weightp=2 / keyint=infinite / keyint_min=30 / scenecut=40 / intra_refresh=0 / rc_lookahead=50 / rc=crf / mbtree=1 / crf=20.0 / qcomp=0.60 / qpmin=5 / qpmax=69 / qpstep=4 / vbv_maxrate=4950 / vbv_bufsize=13500 / crf_max=0.0 / nal_hrd=none / filler=0 / ip_ratio=1.40 / aq=1:1.00 Encoded date : UTC 2016-07-01 11:58:32 Tagged date : UTC 2016-07-01 11:58:32 Color range : Limited Color primaries : BT.709 Transfer characteristics : BT.709 Matrix coefficients : BT.709

Audio ID : 2 Format : AAC Format/Info : Advanced Audio Codec Format profile : LC Codec ID : 40 Duration : 51mn 24s Bit rate mode : Variable Bit rate : 235 Kbps Channel(s) : 2 channels Channel positions : Front: L R Sampling rate : 48.0 KHz Frame rate : 46.875 fps (1024 spf) Compression mode : Lossy Stream size : 86.5 MiB (23%) Encoded date : UTC 2016-07-01 11:58:32 Tagged date : UTC 2016-07-01 11:58:32

General Complete name : C:torrentHTML academy2 Методологии.mp4 Format : MPEG-4 Format profile : Base Media / Version 2 Codec ID : mp42 (mp42/mp41/isom/avc1) File size : 918 MiB Duration : 1h 51mn Overall bit rate mode : Variable Overall bit rate : 1 147 Kbps Encoded date : UTC 2016-05-27 08:55:48 Tagged date : UTC 2016-05-27 08:55:48

Video ID : 1 Format : AVC Format/Info : Advanced Video Codec Format profile : [email protected] Format settings, CABAC : Yes Format settings, ReFrames : 4 frames Codec ID : avc1 Codec ID/Info : Advanced Video Coding Duration : 1h 51mn Bit rate : 907 Kbps Width : 1 728 pixels Height : 1 080 pixels Display aspect ratio : 16:10 Frame rate mode : Constant Frame rate : 30.000 fps Color space : YUV Chroma subsampling : 4:2:0 Bit depth : 8 bits Scan type : Progressive Bits/(Pixel*Frame) : 0.016 Stream size : 726 MiB (79%) Writing library : x264 core 148 r11 a01e339 Encoding settings : cabac=1 / ref=4 / deblock=1:0:0 / analyse=0x3:0x113 / me=umh / subme=8 / psy=1 / psy_rd=1.00:0.00 / mixed_ref=1 / me_range=16 / chroma_me=1 / trellis=1 / 8x8dct=1 / cqm=0 / deadzone=21,11 / fast_pskip=1 / chroma_qp_offset=-2 / threads=34 / lookahead_threads=5 / sliced_threads=0 / nr=0 / decimate=1 / interlaced=0 / bluray_compat=0 / stitchable=1 / constrained_intra=0 / bframes=3 / b_pyramid=2 / b_adapt=2 / b_bias=0 / direct=3 / weightb=1 / open_gop=0 / weightp=2 / keyint=infinite / keyint_min=30 / scenecut=40 / intra_refresh=0 / rc_lookahead=50 / rc=crf / mbtree=1 / crf=20.0 / qcomp=0.60 / qpmin=5 / qpmax=69 / qpstep=4 / vbv_maxrate=4950 / vbv_bufsize=13500 / crf_max=0.0 / nal_hrd=none / filler=0 / ip_ratio=1.40 / aq=1:1.00 Encoded date : UTC 2016-05-27 08:55:48 Tagged date : UTC 2016-05-27 08:55:48 Color range : Limited Color primaries : BT.709 Transfer characteristics : BT.709 Matrix coefficients : BT.709

Audio ID : 2 Format : AAC Format/Info : Advanced Audio Codec Format profile : LC Codec ID : 40 Duration : 1h 51mn Bit rate mode : Variable Bit rate : 235 Kbps Channel(s) : 2 channels Channel positions : Front: L R Sampling rate : 48.0 KHz Frame rate : 46.875 fps (1024 spf) Compression mode : Lossy Stream size : 188 MiB (21%) Encoded date : UTC 2016-05-27 08:55:48 Tagged date : UTC 2016-05-27 08:55:48

General Complete name : C:torrentHTML academy3 CSS-препроцессоры.mp4 Format : MPEG-4 Format profile : Base Media / Version 2 Codec ID : mp42 (mp42/mp41/isom/avc1) File size : 819 MiB Duration : 1h 57mn Overall bit rate mode : Variable Overall bit rate : 975 Kbps Encoded date : UTC 2016-05-31 09:46:37 Tagged date : UTC 2016-05-31 09:46:37

Video ID : 1 Format : AVC Format/Info : Advanced Video Codec Format profile : [email protected] Format settings, CABAC : Yes Format settings, ReFrames : 4 frames Codec ID : avc1 Codec ID/Info : Advanced Video Coding Duration : 1h 57mn Bit rate : 735 Kbps Width : 1 728 pixels Height : 1 080 pixels Display aspect ratio : 16:10 Frame rate mode : Constant Frame rate : 30.000 fps Color space : YUV Chroma subsampling : 4:2:0 Bit depth : 8 bits Scan type : Progressive Bits/(Pixel*Frame) : 0.013 Stream size : 617 MiB (75%) Writing library : x264 core 148 r11 a01e339 Encoding settings : cabac=1 / ref=4 / deblock=1:0:0 / analyse=0x3:0x113 / me=umh / subme=8 / psy=1 / psy_rd=1.00:0.00 / mixed_ref=1 / me_range=16 / chroma_me=1 / trellis=1 / 8x8dct=1 / cqm=0 / deadzone=21,11 / fast_pskip=1 / chroma_qp_offset=-2 / threads=34 / lookahead_threads=5 / sliced_threads=0 / nr=0 / decimate=1 / interlaced=0 / bluray_compat=0 / stitchable=1 / constrained_intra=0 / bframes=3 / b_pyramid=2 / b_adapt=2 / b_bias=0 / direct=3 / weightb=1 / open_gop=0 / weightp=2 / keyint=infinite / keyint_min=30 / scenecut=40 / intra_refresh=0 / rc_lookahead=50 / rc=crf / mbtree=1 / crf=20.0 / qcomp=0.60 / qpmin=5 / qpmax=69 / qpstep=4 / vbv_maxrate=4950 / vbv_bufsize=13500 / crf_max=0.0 / nal_hrd=none / filler=0 / ip_ratio=1.40 / aq=1:1.00 Encoded date : UTC 2016-05-31 09:46:37 Tagged date : UTC 2016-05-31 09:46:37 Color range : Limited Color primaries : BT.709 Transfer characteristics : BT.709 Matrix coefficients : BT.709

Audio ID : 2 Format : AAC Format/Info : Advanced Audio Codec Format profile : LC Codec ID : 40 Duration : 1h 57mn Bit rate mode : Variable Bit rate : 235 Kbps Channel(s) : 2 channels Channel positions : Front: L R Sampling rate : 48.0 KHz Frame rate : 46.875 fps (1024 spf) Compression mode : Lossy Stream size : 198 MiB (24%) Encoded date : UTC 2016-05-31 09:46:37 Tagged date : UTC 2016-05-31 09:46:37

therutor.org

rutor.org :: Интенсивный онлайн-курс «Продвинутый HTML и CSS» [HTML Academy] (2016) PCRec ::: Скачать торрент

General Complete name : C:torrentHTML academy1 Вводный.mp4 Format : MPEG-4 Format profile : Base Media / Version 2 Codec ID : mp42 (mp42/mp41/isom/avc1) File size : 983 MiB Duration : 2h 13mn Overall bit rate mode : Variable Overall bit rate : 1 028 Kbps Encoded date : UTC 2016-05-24 08:08:21 Tagged date : UTC 2016-05-24 08:08:21

Video ID : 1 Format : AVC Format/Info : Advanced Video Codec Format profile : [email protected] Format settings, CABAC : Yes Format settings, ReFrames : 4 frames Codec ID : avc1 Codec ID/Info : Advanced Video Coding Duration : 2h 13mn Bit rate : 788 Kbps Width : 1 728 pixels Height : 1 080 pixels Display aspect ratio : 16:10 Frame rate mode : Constant Frame rate : 30.000 fps Color space : YUV Chroma subsampling : 4:2:0 Bit depth : 8 bits Scan type : Progressive Bits/(Pixel*Frame) : 0.014 Stream size : 754 MiB (77%) Writing library : x264 core 148 r11 a01e339 Encoding settings : cabac=1 / ref=4 / deblock=1:0:0 / analyse=0x3:0x113 / me=umh / subme=8 / psy=1 / psy_rd=1.00:0.00 / mixed_ref=1 / me_range=16 / chroma_me=1 / trellis=1 / 8x8dct=1 / cqm=0 / deadzone=21,11 / fast_pskip=1 / chroma_qp_offset=-2 / threads=34 / lookahead_threads=5 / sliced_threads=0 / nr=0 / decimate=1 / interlaced=0 / bluray_compat=0 / stitchable=1 / constrained_intra=0 / bframes=3 / b_pyramid=2 / b_adapt=2 / b_bias=0 / direct=3 / weightb=1 / open_gop=0 / weightp=2 / keyint=infinite / keyint_min=30 / scenecut=40 / intra_refresh=0 / rc_lookahead=50 / rc=crf / mbtree=1 / crf=20.0 / qcomp=0.60 / qpmin=5 / qpmax=69 / qpstep=4 / vbv_maxrate=4950 / vbv_bufsize=13500 / crf_max=0.0 / nal_hrd=none / filler=0 / ip_ratio=1.40 / aq=1:1.00 Encoded date : UTC 2016-05-24 08:08:21 Tagged date : UTC 2016-05-24 08:08:21 Color range : Limited Color primaries : BT.709 Transfer characteristics : BT.709 Matrix coefficients : BT.709

Audio ID : 2 Format : AAC Format/Info : Advanced Audio Codec Format profile : LC Codec ID : 40 Duration : 2h 13mn Bit rate mode : Variable Bit rate : 235 Kbps Channel(s) : 2 channels Channel positions : Front: L R Sampling rate : 48.0 KHz Frame rate : 46.875 fps (1024 spf) Compression mode : Lossy Stream size : 225 MiB (23%) Encoded date : UTC 2016-05-24 08:08:21 Tagged date : UTC 2016-05-24 08:08:21

General Complete name : C:torrentHTML academy10 Финал.mp4 Format : MPEG-4 Format profile : Base Media / Version 2 Codec ID : mp42 (mp42/mp41/isom/avc1) File size : 377 MiB Duration : 51mn 24s Overall bit rate mode : Variable Overall bit rate : 1 024 Kbps Encoded date : UTC 2016-07-01 11:58:32 Tagged date : UTC 2016-07-01 11:58:32

Video ID : 1 Format : AVC Format/Info : Advanced Video Codec Format profile : [email protected] Format settings, CABAC : Yes Format settings, ReFrames : 4 frames Codec ID : avc1 Codec ID/Info : Advanced Video Coding Duration : 51mn 24s Bit rate : 784 Kbps Width : 1 728 pixels Height : 1 080 pixels Display aspect ratio : 16:10 Frame rate mode : Constant Frame rate : 30.000 fps Color space : YUV Chroma subsampling : 4:2:0 Bit depth : 8 bits Scan type : Progressive Bits/(Pixel*Frame) : 0.014 Stream size : 288 MiB (77%) Writing library : x264 core 148 r11 3b70645 Encoding settings : cabac=1 / ref=4 / deblock=1:0:0 / analyse=0x3:0x113 / me=umh / subme=8 / psy=1 / psy_rd=1.00:0.00 / mixed_ref=1 / me_range=16 / chroma_me=1 / trellis=1 / 8x8dct=1 / cqm=0 / deadzone=21,11 / fast_pskip=1 / chroma_qp_offset=-2 / threads=34 / lookahead_threads=5 / sliced_threads=0 / nr=0 / decimate=1 / interlaced=0 / bluray_compat=0 / stitchable=1 / constrained_intra=0 / bframes=3 / b_pyramid=2 / b_adapt=2 / b_bias=0 / direct=3 / weightb=1 / open_gop=0 / weightp=2 / keyint=infinite / keyint_min=30 / scenecut=40 / intra_refresh=0 / rc_lookahead=50 / rc=crf / mbtree=1 / crf=20.0 / qcomp=0.60 / qpmin=5 / qpmax=69 / qpstep=4 / vbv_maxrate=4950 / vbv_bufsize=13500 / crf_max=0.0 / nal_hrd=none / filler=0 / ip_ratio=1.40 / aq=1:1.00 Encoded date : UTC 2016-07-01 11:58:32 Tagged date : UTC 2016-07-01 11:58:32 Color range : Limited Color primaries : BT.709 Transfer characteristics : BT.709 Matrix coefficients : BT.709

Audio ID : 2 Format : AAC Format/Info : Advanced Audio Codec Format profile : LC Codec ID : 40 Duration : 51mn 24s Bit rate mode : Variable Bit rate : 235 Kbps Channel(s) : 2 channels Channel positions : Front: L R Sampling rate : 48.0 KHz Frame rate : 46.875 fps (1024 spf) Compression mode : Lossy Stream size : 86.5 MiB (23%) Encoded date : UTC 2016-07-01 11:58:32 Tagged date : UTC 2016-07-01 11:58:32

General Complete name : C:torrentHTML academy2 Методологии.mp4 Format : MPEG-4 Format profile : Base Media / Version 2 Codec ID : mp42 (mp42/mp41/isom/avc1) File size : 918 MiB Duration : 1h 51mn Overall bit rate mode : Variable Overall bit rate : 1 147 Kbps Encoded date : UTC 2016-05-27 08:55:48 Tagged date : UTC 2016-05-27 08:55:48

Video ID : 1 Format : AVC Format/Info : Advanced Video Codec Format profile : [email protected] Format settings, CABAC : Yes Format settings, ReFrames : 4 frames Codec ID : avc1 Codec ID/Info : Advanced Video Coding Duration : 1h 51mn Bit rate : 907 Kbps Width : 1 728 pixels Height : 1 080 pixels Display aspect ratio : 16:10 Frame rate mode : Constant Frame rate : 30.000 fps Color space : YUV Chroma subsampling : 4:2:0 Bit depth : 8 bits Scan type : Progressive Bits/(Pixel*Frame) : 0.016 Stream size : 726 MiB (79%) Writing library : x264 core 148 r11 a01e339 Encoding settings : cabac=1 / ref=4 / deblock=1:0:0 / analyse=0x3:0x113 / me=umh / subme=8 / psy=1 / psy_rd=1.00:0.00 / mixed_ref=1 / me_range=16 / chroma_me=1 / trellis=1 / 8x8dct=1 / cqm=0 / deadzone=21,11 / fast_pskip=1 / chroma_qp_offset=-2 / threads=34 / lookahead_threads=5 / sliced_threads=0 / nr=0 / decimate=1 / interlaced=0 / bluray_compat=0 / stitchable=1 / constrained_intra=0 / bframes=3 / b_pyramid=2 / b_adapt=2 / b_bias=0 / direct=3 / weightb=1 / open_gop=0 / weightp=2 / keyint=infinite / keyint_min=30 / scenecut=40 / intra_refresh=0 / rc_lookahead=50 / rc=crf / mbtree=1 / crf=20.0 / qcomp=0.60 / qpmin=5 / qpmax=69 / qpstep=4 / vbv_maxrate=4950 / vbv_bufsize=13500 / crf_max=0.0 / nal_hrd=none / filler=0 / ip_ratio=1.40 / aq=1:1.00 Encoded date : UTC 2016-05-27 08:55:48 Tagged date : UTC 2016-05-27 08:55:48 Color range : Limited Color primaries : BT.709 Transfer characteristics : BT.709 Matrix coefficients : BT.709

Audio ID : 2 Format : AAC Format/Info : Advanced Audio Codec Format profile : LC Codec ID : 40 Duration : 1h 51mn Bit rate mode : Variable Bit rate : 235 Kbps Channel(s) : 2 channels Channel positions : Front: L R Sampling rate : 48.0 KHz Frame rate : 46.875 fps (1024 spf) Compression mode : Lossy Stream size : 188 MiB (21%) Encoded date : UTC 2016-05-27 08:55:48 Tagged date : UTC 2016-05-27 08:55:48

General Complete name : C:torrentHTML academy3 CSS-препроцессоры.mp4 Format : MPEG-4 Format profile : Base Media / Version 2 Codec ID : mp42 (mp42/mp41/isom/avc1) File size : 819 MiB Duration : 1h 57mn Overall bit rate mode : Variable Overall bit rate : 975 Kbps Encoded date : UTC 2016-05-31 09:46:37 Tagged date : UTC 2016-05-31 09:46:37

Video ID : 1 Format : AVC Format/Info : Advanced Video Codec Format profile : [email protected] Format settings, CABAC : Yes Format settings, ReFrames : 4 frames Codec ID : avc1 Codec ID/Info : Advanced Video Coding Duration : 1h 57mn Bit rate : 735 Kbps Width : 1 728 pixels Height : 1 080 pixels Display aspect ratio : 16:10 Frame rate mode : Constant Frame rate : 30.000 fps Color space : YUV Chroma subsampling : 4:2:0 Bit depth : 8 bits Scan type : Progressive Bits/(Pixel*Frame) : 0.013 Stream size : 617 MiB (75%) Writing library : x264 core 148 r11 a01e339 Encoding settings : cabac=1 / ref=4 / deblock=1:0:0 / analyse=0x3:0x113 / me=umh / subme=8 / psy=1 / psy_rd=1.00:0.00 / mixed_ref=1 / me_range=16 / chroma_me=1 / trellis=1 / 8x8dct=1 / cqm=0 / deadzone=21,11 / fast_pskip=1 / chroma_qp_offset=-2 / threads=34 / lookahead_threads=5 / sliced_threads=0 / nr=0 / decimate=1 / interlaced=0 / bluray_compat=0 / stitchable=1 / constrained_intra=0 / bframes=3 / b_pyramid=2 / b_adapt=2 / b_bias=0 / direct=3 / weightb=1 / open_gop=0 / weightp=2 / keyint=infinite / keyint_min=30 / scenecut=40 / intra_refresh=0 / rc_lookahead=50 / rc=crf / mbtree=1 / crf=20.0 / qcomp=0.60 / qpmin=5 / qpmax=69 / qpstep=4 / vbv_maxrate=4950 / vbv_bufsize=13500 / crf_max=0.0 / nal_hrd=none / filler=0 / ip_ratio=1.40 / aq=1:1.00 Encoded date : UTC 2016-05-31 09:46:37 Tagged date : UTC 2016-05-31 09:46:37 Color range : Limited Color primaries : BT.709 Transfer characteristics : BT.709 Matrix coefficients : BT.709

Audio ID : 2 Format : AAC Format/Info : Advanced Audio Codec Format profile : LC Codec ID : 40 Duration : 1h 57mn Bit rate mode : Variable Bit rate : 235 Kbps Channel(s) : 2 channels Channel positions : Front: L R Sampling rate : 48.0 KHz Frame rate : 46.875 fps (1024 spf) Compression mode : Lossy Stream size : 198 MiB (24%) Encoded date : UTC 2016-05-31 09:46:37 Tagged date : UTC 2016-05-31 09:46:37

main-rutor.org

Скачать торрент Интенсивный онлайн-курс «Продвинутый HTML и CSS» [HTML Academy] (2016) PCRec

General Complete name : C:torrentHTML academy1 Вводный.mp4 Format : MPEG-4 Format profile : Base Media / Version 2 Codec ID : mp42 (mp42/mp41/isom/avc1) File size : 983 MiB Duration : 2h 13mn Overall bit rate mode : Variable Overall bit rate : 1 028 Kbps Encoded date : UTC 2016-05-24 08:08:21 Tagged date : UTC 2016-05-24 08:08:21

Video ID : 1 Format : AVC Format/Info : Advanced Video Codec Format profile : [email protected] Format settings, CABAC : Yes Format settings, ReFrames : 4 frames Codec ID : avc1 Codec ID/Info : Advanced Video Coding Duration : 2h 13mn Bit rate : 788 Kbps Width : 1 728 pixels Height : 1 080 pixels Display aspect ratio : 16:10 Frame rate mode : Constant Frame rate : 30.000 fps Color space : YUV Chroma subsampling : 4:2:0 Bit depth : 8 bits Scan type : Progressive Bits/(Pixel*Frame) : 0.014 Stream size : 754 MiB (77%) Writing library : x264 core 148 r11 a01e339 Encoding settings : cabac=1 / ref=4 / deblock=1:0:0 / analyse=0x3:0x113 / me=umh / subme=8 / psy=1 / psy_rd=1.00:0.00 / mixed_ref=1 / me_range=16 / chroma_me=1 / trellis=1 / 8x8dct=1 / cqm=0 / deadzone=21,11 / fast_pskip=1 / chroma_qp_offset=-2 / threads=34 / lookahead_threads=5 / sliced_threads=0 / nr=0 / decimate=1 / interlaced=0 / bluray_compat=0 / stitchable=1 / constrained_intra=0 / bframes=3 / b_pyramid=2 / b_adapt=2 / b_bias=0 / direct=3 / weightb=1 / open_gop=0 / weightp=2 / keyint=infinite / keyint_min=30 / scenecut=40 / intra_refresh=0 / rc_lookahead=50 / rc=crf / mbtree=1 / crf=20.0 / qcomp=0.60 / qpmin=5 / qpmax=69 / qpstep=4 / vbv_maxrate=4950 / vbv_bufsize=13500 / crf_max=0.0 / nal_hrd=none / filler=0 / ip_ratio=1.40 / aq=1:1.00 Encoded date : UTC 2016-05-24 08:08:21 Tagged date : UTC 2016-05-24 08:08:21 Color range : Limited Color primaries : BT.709 Transfer characteristics : BT.709 Matrix coefficients : BT.709

Audio ID : 2 Format : AAC Format/Info : Advanced Audio Codec Format profile : LC Codec ID : 40 Duration : 2h 13mn Bit rate mode : Variable Bit rate : 235 Kbps Channel(s) : 2 channels Channel positions : Front: L R Sampling rate : 48.0 KHz Frame rate : 46.875 fps (1024 spf) Compression mode : Lossy Stream size : 225 MiB (23%) Encoded date : UTC 2016-05-24 08:08:21 Tagged date : UTC 2016-05-24 08:08:21

General Complete name : C:torrentHTML academy10 Финал.mp4 Format : MPEG-4 Format profile : Base Media / Version 2 Codec ID : mp42 (mp42/mp41/isom/avc1) File size : 377 MiB Duration : 51mn 24s Overall bit rate mode : Variable Overall bit rate : 1 024 Kbps Encoded date : UTC 2016-07-01 11:58:32 Tagged date : UTC 2016-07-01 11:58:32

Video ID : 1 Format : AVC Format/Info : Advanced Video Codec Format profile : [email protected] Format settings, CABAC : Yes Format settings, ReFrames : 4 frames Codec ID : avc1 Codec ID/Info : Advanced Video Coding Duration : 51mn 24s Bit rate : 784 Kbps Width : 1 728 pixels Height : 1 080 pixels Display aspect ratio : 16:10 Frame rate mode : Constant Frame rate : 30.000 fps Color space : YUV Chroma subsampling : 4:2:0 Bit depth : 8 bits Scan type : Progressive Bits/(Pixel*Frame) : 0.014 Stream size : 288 MiB (77%) Writing library : x264 core 148 r11 3b70645 Encoding settings : cabac=1 / ref=4 / deblock=1:0:0 / analyse=0x3:0x113 / me=umh / subme=8 / psy=1 / psy_rd=1.00:0.00 / mixed_ref=1 / me_range=16 / chroma_me=1 / trellis=1 / 8x8dct=1 / cqm=0 / deadzone=21,11 / fast_pskip=1 / chroma_qp_offset=-2 / threads=34 / lookahead_threads=5 / sliced_threads=0 / nr=0 / decimate=1 / interlaced=0 / bluray_compat=0 / stitchable=1 / constrained_intra=0 / bframes=3 / b_pyramid=2 / b_adapt=2 / b_bias=0 / direct=3 / weightb=1 / open_gop=0 / weightp=2 / keyint=infinite / keyint_min=30 / scenecut=40 / intra_refresh=0 / rc_lookahead=50 / rc=crf / mbtree=1 / crf=20.0 / qcomp=0.60 / qpmin=5 / qpmax=69 / qpstep=4 / vbv_maxrate=4950 / vbv_bufsize=13500 / crf_max=0.0 / nal_hrd=none / filler=0 / ip_ratio=1.40 / aq=1:1.00 Encoded date : UTC 2016-07-01 11:58:32 Tagged date : UTC 2016-07-01 11:58:32 Color range : Limited Color primaries : BT.709 Transfer characteristics : BT.709 Matrix coefficients : BT.709

Audio ID : 2 Format : AAC Format/Info : Advanced Audio Codec Format profile : LC Codec ID : 40 Duration : 51mn 24s Bit rate mode : Variable Bit rate : 235 Kbps Channel(s) : 2 channels Channel positions : Front: L R Sampling rate : 48.0 KHz Frame rate : 46.875 fps (1024 spf) Compression mode : Lossy Stream size : 86.5 MiB (23%) Encoded date : UTC 2016-07-01 11:58:32 Tagged date : UTC 2016-07-01 11:58:32

General Complete name : C:torrentHTML academy2 Методологии.mp4 Format : MPEG-4 Format profile : Base Media / Version 2 Codec ID : mp42 (mp42/mp41/isom/avc1) File size : 918 MiB Duration : 1h 51mn Overall bit rate mode : Variable Overall bit rate : 1 147 Kbps Encoded date : UTC 2016-05-27 08:55:48 Tagged date : UTC 2016-05-27 08:55:48

Video ID : 1 Format : AVC Format/Info : Advanced Video Codec Format profile : [email protected] Format settings, CABAC : Yes Format settings, ReFrames : 4 frames Codec ID : avc1 Codec ID/Info : Advanced Video Coding Duration : 1h 51mn Bit rate : 907 Kbps Width : 1 728 pixels Height : 1 080 pixels Display aspect ratio : 16:10 Frame rate mode : Constant Frame rate : 30.000 fps Color space : YUV Chroma subsampling : 4:2:0 Bit depth : 8 bits Scan type : Progressive Bits/(Pixel*Frame) : 0.016 Stream size : 726 MiB (79%) Writing library : x264 core 148 r11 a01e339 Encoding settings : cabac=1 / ref=4 / deblock=1:0:0 / analyse=0x3:0x113 / me=umh / subme=8 / psy=1 / psy_rd=1.00:0.00 / mixed_ref=1 / me_range=16 / chroma_me=1 / trellis=1 / 8x8dct=1 / cqm=0 / deadzone=21,11 / fast_pskip=1 / chroma_qp_offset=-2 / threads=34 / lookahead_threads=5 / sliced_threads=0 / nr=0 / decimate=1 / interlaced=0 / bluray_compat=0 / stitchable=1 / constrained_intra=0 / bframes=3 / b_pyramid=2 / b_adapt=2 / b_bias=0 / direct=3 / weightb=1 / open_gop=0 / weightp=2 / keyint=infinite / keyint_min=30 / scenecut=40 / intra_refresh=0 / rc_lookahead=50 / rc=crf / mbtree=1 / crf=20.0 / qcomp=0.60 / qpmin=5 / qpmax=69 / qpstep=4 / vbv_maxrate=4950 / vbv_bufsize=13500 / crf_max=0.0 / nal_hrd=none / filler=0 / ip_ratio=1.40 / aq=1:1.00 Encoded date : UTC 2016-05-27 08:55:48 Tagged date : UTC 2016-05-27 08:55:48 Color range : Limited Color primaries : BT.709 Transfer characteristics : BT.709 Matrix coefficients : BT.709

Audio ID : 2 Format : AAC Format/Info : Advanced Audio Codec Format profile : LC Codec ID : 40 Duration : 1h 51mn Bit rate mode : Variable Bit rate : 235 Kbps Channel(s) : 2 channels Channel positions : Front: L R Sampling rate : 48.0 KHz Frame rate : 46.875 fps (1024 spf) Compression mode : Lossy Stream size : 188 MiB (21%) Encoded date : UTC 2016-05-27 08:55:48 Tagged date : UTC 2016-05-27 08:55:48

General Complete name : C:torrentHTML academy3 CSS-препроцессоры.mp4 Format : MPEG-4 Format profile : Base Media / Version 2 Codec ID : mp42 (mp42/mp41/isom/avc1) File size : 819 MiB Duration : 1h 57mn Overall bit rate mode : Variable Overall bit rate : 975 Kbps Encoded date : UTC 2016-05-31 09:46:37 Tagged date : UTC 2016-05-31 09:46:37

Video ID : 1 Format : AVC Format/Info : Advanced Video Codec Format profile : [email protected] Format settings, CABAC : Yes Format settings, ReFrames : 4 frames Codec ID : avc1 Codec ID/Info : Advanced Video Coding Duration : 1h 57mn Bit rate : 735 Kbps Width : 1 728 pixels Height : 1 080 pixels Display aspect ratio : 16:10 Frame rate mode : Constant Frame rate : 30.000 fps Color space : YUV Chroma subsampling : 4:2:0 Bit depth : 8 bits Scan type : Progressive Bits/(Pixel*Frame) : 0.013 Stream size : 617 MiB (75%) Writing library : x264 core 148 r11 a01e339 Encoding settings : cabac=1 / ref=4 / deblock=1:0:0 / analyse=0x3:0x113 / me=umh / subme=8 / psy=1 / psy_rd=1.00:0.00 / mixed_ref=1 / me_range=16 / chroma_me=1 / trellis=1 / 8x8dct=1 / cqm=0 / deadzone=21,11 / fast_pskip=1 / chroma_qp_offset=-2 / threads=34 / lookahead_threads=5 / sliced_threads=0 / nr=0 / decimate=1 / interlaced=0 / bluray_compat=0 / stitchable=1 / constrained_intra=0 / bframes=3 / b_pyramid=2 / b_adapt=2 / b_bias=0 / direct=3 / weightb=1 / open_gop=0 / weightp=2 / keyint=infinite / keyint_min=30 / scenecut=40 / intra_refresh=0 / rc_lookahead=50 / rc=crf / mbtree=1 / crf=20.0 / qcomp=0.60 / qpmin=5 / qpmax=69 / qpstep=4 / vbv_maxrate=4950 / vbv_bufsize=13500 / crf_max=0.0 / nal_hrd=none / filler=0 / ip_ratio=1.40 / aq=1:1.00 Encoded date : UTC 2016-05-31 09:46:37 Tagged date : UTC 2016-05-31 09:46:37 Color range : Limited Color primaries : BT.709 Transfer characteristics : BT.709 Matrix coefficients : BT.709

Audio ID : 2 Format : AAC Format/Info : Advanced Audio Codec Format profile : LC Codec ID : 40 Duration : 1h 57mn Bit rate mode : Variable Bit rate : 235 Kbps Channel(s) : 2 channels Channel positions : Front: L R Sampling rate : 48.0 KHz Frame rate : 46.875 fps (1024 spf) Compression mode : Lossy Stream size : 198 MiB (24%) Encoded date : UTC 2016-05-31 09:46:37 Tagged date : UTC 2016-05-31 09:46:37

krutor.org

- HTML CSS HTML Academy (2016) PCRec

: , . - , ., -. Git GitHub, .

1. 2. 3. 4. 5. 6. 7. Java8. 9.

GeneralComplete name : C:torrentHTML academy1 .mp4Format : MPEG-4Format profile : Base Media / Version 2Codec ID : mp42 (mp42/mp41/isom/avc1)File size : 983 MiBDuration : 2h 13mnOverall bit rate mode : VariableOverall bit rate : 1 028 KbpsEncoded date : UTC 2016-05-24 08:08:21Tagged date : UTC 2016-05-24 08:08:21

VideoID : 1Format : AVCFormat/Info : Advanced Video CodecFormat profile : [email protected] settings, CABAC : YesFormat settings, ReFrames : 4 framesCodec ID : avc1Codec ID/Info : Advanced Video CodingDuration : 2h 13mnBit rate : 788 KbpsWidth : 1 728 pixelsHeight : 1 080 pixelsDisplay aspect ratio : 16:10Frame rate mode : ConstantFrame rate : 30.000 fpsColor space : YUVChroma subsampling : 4:2:0Bit depth : 8 bitsScan type : ProgressiveBits/(Pixel*Frame) : 0.014Stream size : 754 MiB (77%)Writing library : x264 core 148 r11 a01e339Encoding settings : cabac=1 / ref=4 / deblock=1:0:0 / analyse=0x3:0x113 / me=umh / subme=8 / psy=1 / psy_rd=1.00:0.00 / mixed_ref=1 / me_range=16 / chroma_me=1 / trellis=1 / 8x8dct=1 / cqm=0 / deadzone=21,11 / fast_pskip=1 / chroma_qp_offset=-2 / threads=34 / lookahead_threads=5 / sliced_threads=0 / nr=0 / decimate=1 / interlaced=0 / bluray_compat=0 / stitchable=1 / constrained_intra=0 / bframes=3 / b_pyramid=2 / b_adapt=2 / b_bias=0 / direct=3 / weightb=1 / open_gop=0 / weightp=2 / keyint=infinite / keyint_min=30 / scenecut=40 / intra_refresh=0 / rc_lookahead=50 / rc=crf / mbtree=1 / crf=20.0 / qcomp=0.60 / qpmin=5 / qpmax=69 / qpstep=4 / vbv_maxrate=4950 / vbv_bufsize=13500 / crf_max=0.0 / nal_hrd=none / filler=0 / ip_ratio=1.40 / aq=1:1.00Encoded date : UTC 2016-05-24 08:08:21Tagged date : UTC 2016-05-24 08:08:21Color range : LimitedColor primaries : BT.709Transfer characteristics : BT.709Matrix coefficients : BT.709

AudioID : 2Format : AACFormat/Info : Advanced Audio CodecFormat profile : LCCodec ID : 40Duration : 2h 13mnBit rate mode : VariableBit rate : 235 KbpsChannel(s) : 2 channelsChannel positions : Front: L RSampling rate : 48.0 KHzFrame rate : 46.875 fps (1024 spf)Compression mode : LossyStream size : 225 MiB (23%)Encoded date : UTC 2016-05-24 08:08:21Tagged date : UTC 2016-05-24 08:08:21

GeneralComplete name : C:torrentHTML academy10 .mp4Format : MPEG-4Format profile : Base Media / Version 2Codec ID : mp42 (mp42/mp41/isom/avc1)File size : 377 MiBDuration : 51mn 24sOverall bit rate mode : VariableOverall bit rate : 1 024 KbpsEncoded date : UTC 2016-07-01 11:58:32Tagged date : UTC 2016-07-01 11:58:32

VideoID : 1Format : AVCFormat/Info : Advanced Video CodecFormat profile : [email protected] settings, CABAC : YesFormat settings, ReFrames : 4 framesCodec ID : avc1Codec ID/Info : Advanced Video CodingDuration : 51mn 24sBit rate : 784 KbpsWidth : 1 728 pixelsHeight : 1 080 pixelsDisplay aspect ratio : 16:10Frame rate mode : ConstantFrame rate : 30.000 fpsColor space : YUVChroma subsampling : 4:2:0Bit depth : 8 bitsScan type : ProgressiveBits/(Pixel*Frame) : 0.014Stream size : 288 MiB (77%)Writing library : x264 core 148 r11 3b70645Encoding settings : cabac=1 / ref=4 / deblock=1:0:0 / analyse=0x3:0x113 / me=umh / subme=8 / psy=1 / psy_rd=1.00:0.00 / mixed_ref=1 / me_range=16 / chroma_me=1 / trellis=1 / 8x8dct=1 / cqm=0 / deadzone=21,11 / fast_pskip=1 / chroma_qp_offset=-2 / threads=34 / lookahead_threads=5 / sliced_threads=0 / nr=0 / decimate=1 / interlaced=0 / bluray_compat=0 / stitchable=1 / constrained_intra=0 / bframes=3 / b_pyramid=2 / b_adapt=2 / b_bias=0 / direct=3 / weightb=1 / open_gop=0 / weightp=2 / keyint=infinite / keyint_min=30 / scenecut=40 / intra_refresh=0 / rc_lookahead=50 / rc=crf / mbtree=1 / crf=20.0 / qcomp=0.60 / qpmin=5 / qpmax=69 / qpstep=4 / vbv_maxrate=4950 / vbv_bufsize=13500 / crf_max=0.0 / nal_hrd=none / filler=0 / ip_ratio=1.40 / aq=1:1.00Encoded date : UTC 2016-07-01 11:58:32Tagged date : UTC 2016-07-01 11:58:32Color range : LimitedColor primaries : BT.709Transfer characteristics : BT.709Matrix coefficients : BT.709

AudioID : 2Format : AACFormat/Info : Advanced Audio CodecFormat profile : LCCodec ID : 40Duration : 51mn 24sBit rate mode : VariableBit rate : 235 KbpsChannel(s) : 2 channelsChannel positions : Front: L RSampling rate : 48.0 KHzFrame rate : 46.875 fps (1024 spf)Compression mode : LossyStream size : 86.5 MiB (23%)Encoded date : UTC 2016-07-01 11:58:32Tagged date : UTC 2016-07-01 11:58:32

GeneralComplete name : C:torrentHTML academy2 .mp4Format : MPEG-4Format profile : Base Media / Version 2Codec ID : mp42 (mp42/mp41/isom/avc1)File size : 918 MiBDuration : 1h 51mnOverall bit rate mode : VariableOverall bit rate : 1 147 KbpsEncoded date : UTC 2016-05-27 08:55:48Tagged date : UTC 2016-05-27 08:55:48

VideoID : 1Format : AVCFormat/Info : Advanced Video CodecFormat profile : [email protected] settings, CABAC : YesFormat settings, ReFrames : 4 framesCodec ID : avc1Codec ID/Info : Advanced Video CodingDuration : 1h 51mnBit rate : 907 KbpsWidth : 1 728 pixelsHeight : 1 080 pixelsDisplay aspect ratio : 16:10Frame rate mode : ConstantFrame rate : 30.000 fpsColor space : YUVChroma subsampling : 4:2:0Bit depth : 8 bitsScan type : ProgressiveBits/(Pixel*Frame) : 0.016Stream size : 726 MiB (79%)Writing library : x264 core 148 r11 a01e339Encoding settings : cabac=1 / ref=4 / deblock=1:0:0 / analyse=0x3:0x113 / me=umh / subme=8 / psy=1 / psy_rd=1.00:0.00 / mixed_ref=1 / me_range=16 / chroma_me=1 / trellis=1 / 8x8dct=1 / cqm=0 / deadzone=21,11 / fast_pskip=1 / chroma_qp_offset=-2 / threads=34 / lookahead_threads=5 / sliced_threads=0 / nr=0 / decimate=1 / interlaced=0 / bluray_compat=0 / stitchable=1 / constrained_intra=0 / bframes=3 / b_pyramid=2 / b_adapt=2 / b_bias=0 / direct=3 / weightb=1 / open_gop=0 / weightp=2 / keyint=infinite / keyint_min=30 / scenecut=40 / intra_refresh=0 / rc_lookahead=50 / rc=crf / mbtree=1 / crf=20.0 / qcomp=0.60 / qpmin=5 / qpmax=69 / qpstep=4 / vbv_maxrate=4950 / vbv_bufsize=13500 / crf_max=0.0 / nal_hrd=none / filler=0 / ip_ratio=1.40 / aq=1:1.00Encoded date : UTC 2016-05-27 08:55:48Tagged date : UTC 2016-05-27 08:55:48Color range : LimitedColor primaries : BT.709Transfer characteristics : BT.709Matrix coefficients : BT.709

AudioID : 2Format : AACFormat/Info : Advanced Audio CodecFormat profile : LCCodec ID : 40Duration : 1h 51mnBit rate mode : VariableBit rate : 235 KbpsChannel(s) : 2 channelsChannel positions : Front: L RSampling rate : 48.0 KHzFrame rate : 46.875 fps (1024 spf)Compression mode : LossyStream size : 188 MiB (21%)Encoded date : UTC 2016-05-27 08:55:48Tagged date : UTC 2016-05-27 08:55:48

GeneralComplete name : C:torrentHTML academy3 CSS-.mp4Format : MPEG-4Format profile : Base Media / Version 2Codec ID : mp42 (mp42/mp41/isom/avc1)File size : 819 MiBDuration : 1h 57mnOverall bit rate mode : VariableOverall bit rate : 975 KbpsEncoded date : UTC 2016-05-31 09:46:37Tagged date : UTC 2016-05-31 09:46:37

VideoID : 1Format : AVCFormat/Info : Advanced Video CodecFormat profile : [email protected] settings, CABAC : YesFormat settings, ReFrames : 4 framesCodec ID : avc1Codec ID/Info : Advanced Video CodingDuration : 1h 57mnBit rate : 735 KbpsWidth : 1 728 pixelsHeight : 1 080 pixelsDisplay aspect ratio : 16:10Frame rate mode : ConstantFrame rate : 30.000 fpsColor space : YUVChroma subsampling : 4:2:0Bit depth : 8 bitsScan type : ProgressiveBits/(Pixel*Frame) : 0.013Stream size : 617 MiB (75%)Writing library : x264 core 148 r11 a01e339Encoding settings : cabac=1 / ref=4 / deblock=1:0:0 / analyse=0x3:0x113 / me=umh / subme=8 / psy=1 / psy_rd=1.00:0.00 / mixed_ref=1 / me_range=16 / chroma_me=1 / trellis=1 / 8x8dct=1 / cqm=0 / deadzone=21,11 / fast_pskip=1 / chroma_qp_offset=-2 / threads=34 / lookahead_threads=5 / sliced_threads=0 / nr=0 / decimate=1 / interlaced=0 / bluray_compat=0 / stitchable=1 / constrained_intra=0 / bframes=3 / b_pyramid=2 / b_adapt=2 / b_bias=0 / direct=3 / weightb=1 / open_gop=0 / weightp=2 / keyint=infinite / keyint_min=30 / scenecut=40 / intra_refresh=0 / rc_lookahead=50 / rc=crf / mbtree=1 / crf=20.0 / qcomp=0.60 / qpmin=5 / qpmax=69 / qpstep=4 / vbv_maxrate=4950 / vbv_bufsize=13500 / crf_max=0.0 / nal_hrd=none / filler=0 / ip_ratio=1.40 / aq=1:1.00Encoded date : UTC 2016-05-31 09:46:37Tagged date : UTC 2016-05-31 09:46:37Color range : LimitedColor primaries : BT.709Transfer characteristics : BT.709Matrix coefficients : BT.709

AudioID : 2Format : AACFormat/Info : Advanced Audio CodecFormat profile : LCCodec ID : 40Duration : 1h 57mnBit rate mode : VariableBit rate : 235 KbpsChannel(s) : 2 channelsChannel positions : Front: L RSampling rate : 48.0 KHzFrame rate : 46.875 fps (1024 spf)Compression mode : LossyStream size : 198 MiB (24%)Encoded date : UTC 2016-05-31 09:46:37Tagged date : UTC 2016-05-31 09:46:37

krutor.net


Смотрите также